Index Of Fast And Furious 1 To 8

The 1971 Plymouth GTX Fast& Furious Edition is a pre-tuned 1971 Plymouth GTX that appears in the The Fate of the Furious Car Pack for Forza Motorsport 7. "The Fast and The Furious" movies are the best! Average score for this quiz is 7 / 10. The franchise also includes short films, a television series, live shows, video games and theme park attractions. Sharyl Attkisson of CBS news has been reporting on Fast and Furious for a very long time. If your Guaranteed Delivery item isn’t on time, you can (1) return the item, for a refund of the full price and return shipping costs; or (2) keep the item and get a refund of your shipping costs (if shipping was free, get a $5 eBay voucher). April 26th, 2017. The Nissan R34 is just like Brian’s from the Fast and Furious films; well known for some great car chase action! With twin turbos and the Skyline’s active 4 wheel drive handling, this will be a unique, hugely enjoyable driving experience. Disc #1 -- The Fast and The Furious 1. php Una giornata di pioggia ha cercato di rovinarci la festa. Because of the recent success of Fast 7, it was announced in April 2015 that the Fast and the Furious movie series would live on despite Paul Walker’s death. Difficulty: Average. This 1971 Plymouth GTX is a car driven by Dominic Toretto in the 2017 film The Fate of the Furious. Fast And Furious Legacy V2 0 0 apk server/orange 52 MB. The easy explanation, of course, is that he didn’t want to crowd her moment. Moritz and distributed by Universal Pictures. The Dwayne Johnson-Jason Statham pic opens on. Fast & Furious (no Brasil, Velozes e Furiosos 4) é um filme de ação americano de 2009, dirigido por Justin Lin e escrito ppor Chris Morgan. The most recent film in the ‘Fast' franchise, 2017′s ‘The Fate of the Furious' grossed more than $1. Det er en spin-off på The Fast and the Furious-serien, som handler om Luke Hobbs og Deckard Shaw. vip sudah dengan subtile indonesia. Fast & Furious 8 review – fuelled by silliness. universe delivered to them in dizzyingly fast and furious hyperreal style from BUSI 100 at Avila University. The Fate of the Furious Critics Consensus. The eighth installment of the Fast & Furious franchise hits theaters on April 14, 2017. 30 racing - everyday 20:30 pm CET/CEST - Fast and Furious (Refly) - 00. As such, Fast and Furious 8 was a no-brainer. No 'last ride' after all: Vin Diesel announces Fast and Furious 8 Fast and Furious actor Vin Diesel took to Instagram to unveil the unofficial poster of car-racing-themed movie Fast and Furious 8. The 2003 Saleen S281-E Mustang is a major car driven by one of Carter Verone's potential employees in 2 Fast 2 Furious. I am a bit of a fan of hot and fast cars so this is for anyone who is also a car maniac. With 10 series, it has gained a lot of fans. On Blu-ray and DVD October 16: po. Please check back again at a later date. Download magnet torrent 720p. 0 +10 TRAINER; Fast & Furious: Showdown v1. aWe had to terminate the pursuit. 99 Add to Cart 1970 Chevrolet Chevelle SS and 2002 Nissan Skyline GT-R Drag Scene - Fast and Furious (2009) - Fast and Furious. Summary: Inspired by the events of Universal Pictures' upcoming film, "The Fast & The Furious: Tokyo Drift," this game immerses players in the underground world of drift racing. Knit using super bulky weight yarn and size 13 needles, this is one knit hat pattern that will be off your needles as quickly as you cast on. Disc #1 -- The Fast and The Furious 1. Turbo-Charged Prelude is a 2003 short film, directed by Philip Atwell, featuring Paul Walker, reprising his role as Brian O’Conner, in a short series of sequences which bridge The Fast and The Furious with its first sequel, 2 Fast 2 Furious. Originalteile. Hobbs and Shaw Movie - Dwayne Johnson, Jason Statham, Idris Elba - Fas. With Vin Diesel, Jason Statham, Dwayne Johnson, Michelle Rodriguez. Furious 7, longtime star Paul Walker’s final film, globally grossed $1. by not later than October 1, 2014. The easy explanation, of course, is that he didn’t want to crowd her moment. Measure 1,83m. Fast & Furious is the fourth film in the Fast & Furious franchise. Incorporated on 2019-01-08, this 1-year-old company is run by 1 director. Tyrese Gibson has threatened to quit the “Fast and the Furious” franchise amid his ongoing feud with co-star Dwayne Johnson. No matter how fast you are, no one outruns their past. Charlize Theron is Cipher The ultimate puppet master, a legendary hacker known only by her exploits. 1 x264-iFT; Fast and Furious Presents Hobbs and Shaw 2019 1080p WEB-DL DD5. 9% and the Nasdaq100 by only 0. Film yang disutradarai oleh Rob Cohen ini dibintangi oleh Paul Walker , Vin Diesel , Michelle Rodriguez , dan Jordana Brewster. securities rose one basis point to 228 today, according to JPMorgan. The Fate of the Furious (aka Fast & Furious 8) is the eighth installment in The Fast and the Furious film franchise. We just index those links which are already available in internet. Plus, a new mobile app experience with exclusive content. The Fast & Furious Earflap Hat is not only quick to complete, it's also super easy. Vin Diesel. Fast & Furious (4) Russian Subtitles. The Fast and the Furious: Tokyo Drift started its international run last weekend but missed the top five with $7. , appointed on 08 January 2019. Release Name: FastFurious4. Fast & Furious 9: Trailer 1. The Fast and the Furious is an adrenaline-filled, action-packed car racing game that enables you to feel like a real racer or a "2 Fast 2 Furious" movie star! This fast-paced, dynamic 2 Fast 2 Furious racing game requires you both to avoid incoming cars and objects, but also to change gears at the most suitable times, to gain more speed. Download magnet torrent 720p. You know this is an fiercely formulistic con- game with appalling acting even by Oscar winners like Theron and Dama Helen Mirren who appears as Jason Statham's mom wearing too much makeup and looking out of place. The Fate of the Furious) (tunnetaan myös nimellä Fast 8 tai Furious 8) on vuonna 2017 ensi-iltansa saanut toimintaelokuva, jonka ohjaaja on F. I don’t know why exactly. KB/DB swings 10-1 reps burpees For time. When a mysterious woman seduces Dominic Toretto into the world of terrorism and a betrayal of those closest to him, the crew face trials that will test them as never before. Directed by Rob Cohen. Home (current) Contact us; #StayHome Back to subtitle list. 03 million internationally and $908. Super and Treasure Hunts. Visit IPLT20. ©2020 Universal Pictures We and our partners use cookies on this site to improve our service, perform analytics, personalize advertising, measure advertising performance, and remember website preferences. Gulf Racing. The Fate of the Furious opens a new chapter in the franchise, fueled by the same infectious cast chemistry and over-the-top action fans have come to expect. Fast & Furious Presents: Hobbs & Shaw seems to have pleased critics. The Fate of the Furious (aka Fast & Furious 8) is the eighth installment in The Fast and the Furious film franchise. 1-TERMiNAL Torrent for Free with TorrentFunk. Release Name: FastFurious4. Consisting of eight films, a spin-off film and two short films, the following is a list of characters from the franchise. 7% of its money earned outside the North American market, as well as for the Fast and Furious franchise in general (Furious 7 made 76. And as every Fast & Furious fan knows, it IS all about family. By continuing your shopping journey we will assume you accept the use of cookies. The UK made it into the top 30 for the number of road vehicles per 1000 people, which sits at 519 (not bad for a relatively small little country), it came 5 th for the number of car sales (3. Fast & Furious 8 cost a quarter of a billion, before advertising and promotion. Michelle Trachtenberg 5. Sinoposis Fast & Furious 9: Dom Toretto duce o viață liniștită. Fast & Furious 8 Fast & Furious 8. Former cop Brian O'Conner is called upon to bust a dangerous criminal and he recruits the help of a former childhood. Jada Toys (#30754) 1/24 Scale $16. Presented by Rotten Tomatoes. Buckle up for nonstop action and mind-blowing speed in the high-octane Fast & Furious 8-Movie Collection. 4GB: 127 : 4 : Fast & Furious 8 FRENCH BluRay 10 8 0p 2017: 10. Fast & Furious: Supercharged is an attraction at Universal Studios Hollywood, Universal Studios Florida and upcoming to Universal Studios Beijing. The Fate of the Furious (titulada: Fast & Furious 8 en España y Rápidos y furiosos 8 en Hispanoamérica) es una película de acción estadounidense de 2017 dirigida por F. Deze Plymouth van “Dom” is gemaakt van metaal door de fabrikant Jada Toys. Hovedrollerne spilles af Vin Diesel , Paul Walker , Dwayne Johnson , Michelle Rodriguez og Jordana Brewster. Are you sure you want to delete your score and checked items on this list? This cannot be undone. Furious 7 confirms that Fast and Furious is set in 2009, as the date on Letty's fake tombstone says 2009, and Fast Five and Six take place immediately (mere days, months at the most) after it, meaning movies 4-6 for the most part are set in 2009-10, with The Fast and the Furious being set five years prior in 2004. Kesuksesan film "Fast & Furious" membawa film ini memiliki 9 seri lho. 'The Fast and the Furious' (2001) Average action, poor visual effects and a weak plot don't help the series opener. You need to disable your adblocking software to continue watching movie on this site. I already ordered a set of 2017 so now i have 2 sets that are the same. With an incredible outpouring of support from the community, we've raised US$458,501. Knitting for men has just gotten easier with the Fast & Furious Earflap Hat. Yet, the ridiculously lucrative Furious 7 ended with real closure. flac" WAVE TRACK 01 AUDIO TITLE "We Own It (Fast and Furious)" PERFORMER "2 Chainz and Wiz Khalifa" INDEX 01 00:00:00 TRACK 02 AUDIO TITLE "Ball" PERFORMER "T. The first shot of the starting line is looking south down Prairie Avenue. Gisele Yashar is a fictional character portrayed by Gal Gadot, who appears in The Fast and The Furious franchise. Houseofhorrors. Fast & Furious Franchise Superstars Celebrate Opening of Fast & Furious – Supercharged at Universal Studios Florida. , Giappone, Francia, Canada Anno: 2017 Genere: Azione, Thriller Durata: 136' Regia: F. Ever since US Diplomatic Security Service Agent Hobbs and lawless outcast Shaw first faced off, they just have swapped smacks and bad words. 28 million, giving it an opening week Blu-ray share of 55%. 3GB 720p 6GB 1080p Now that Dom and Letty are on their honeymoon and Brian and Mia have retired from the game-and the rest of the crew has been exonerated-the globetrotting team. King of the Game. und Fast & Furious Five mit. Ultimele informaţii în cazul morţii actorului Paul Walker (40 de ani) indică faptul că viteza şi o defecţiune a sistemului de direcţie al maşinii în care se afla acesta au reprezentat factorii decisivi care au dus la producerea accidentului. The secret to this scarf is to knit through the back loop while stitching. Fast 8 (alternatively known as Fast & Furious 8 or Furious 8) is an upcoming 2017 American action film directed by F. The Ultimate Collection. Omschrijving: modeltank tank Ripsaw – Fast and Furious 8 – Jada Toys 1:24 De Ripsaw Tank is gemaakt van metaal en kunststof door de fabrikant Jada Toys. On Tuesday, police spotted a Subaru Forester near Sleepy Hollow. 0 [MULTI6] Fixed Files Fast & Furious: Showdown v1. It also has the sharpest domestic-overseas box office split ever for a film that topped $1 billion, with 81. One of the principle stars can’t act. 1 MB Browserul tau nu suporta HTML5 Torrentz will always love you. Braimah Sheriff April 4, 2015 [ENGLISH VERSION] Fast And Furious 7 (2015) [DOWNLOAD] 2015-04-13T04:31:14+01:00 Movie No Comment Release Date : 3 April 2015 Source : SCAMRip. The Fast and the Furious: Original Motion Picture Soundtrack is the first of two soundtracks based on the major motion picture The Fast and the Furious. Vin Diesel, Paul Walker, Michelle Rodriguez and Jordana Brewster will have to work as a team to capture a common enemy. I hope you enjoyed it as much as I did. Wonder Woman. JW had to sue the agency for the records after the Obama administration failed to provide them under the Freedom of Information Act (FOIA). Bilkins is an FBI agent who was seen in The Fast and the Furious and 2 Fast 2 Furious. Former cop Brian O'Conner is called upon to bust a dangerous criminal and he recruits the help of a former childhood. Financial analysis of The Fast and the Furious (2001) including budget, domestic and international box office gross, DVD and Blu-ray sales reports, total earnings and profitability. The film took first place in five markets, including the U. It's the second backwards shift for the title. 7% of its money internationally). Escape from L. Now that Dom and Letty are on their honeymoon and Brian and Mia have retired from the game—and the rest of the crew has been exonerated—the globetrotting team has found a semblance of a. Fast and Furious 8, ou Le Destin des dangereux au Québec (The Fate of the Furious), est un film d'action américain réalisé par F. The Fate of the Furious - #F8 https://www. Streaming Fast & Furious 8 (2017) Sub Indo , Nonton Film Bioskop, Drama, dan Serial Tv Favorit Movie di LK21, LayarKaca21 Online Terus Update Film Terbaru Bagi Pengunjung Setia Cinemaindo IndoXXI. This one was just fine and as good as the last one in the franchise. Note: This movie is part of the "Fast and Furious" film series. In this bundle The Fast and the Furious 2001 2 Fast 2 Furious 2003 The Fast and the Furious: Tokyo Drift 2006 Fast & Furious 2009 Fast Five (Extended Edition) 2011 Fast & Furious 6 (Extended Version) 2013 Furious 7 (Extended Edition) 2015 The Fate of the Furious: Extended Director's Cut 2017. bpg converter to the 'Tools/Texture converters' module and the Fast and Furious 8. Sharyl Attkisson of CBS news has been reporting on Fast and Furious for a very long time. download Fast and Furious - Spy Racers tv show in all mobile formats mp4, hd mp4 and 3gp, free download Fast and Furious - Spy Racers tv series in mobile mp4 and hd mp4 format, all seasons all episodes. The Nissan R34 is just like Brian’s from the Fast and Furious films; well known for some great car chase action! With twin turbos and the Skyline’s active 4 wheel drive handling, this will be a unique, hugely enjoyable driving experience. The score was composed by Brian Tyler. Border Patrol agent nine years ago in a case that exposed a botched federal gun operation known as "Fast and Furious" was sentenced Wednesday to life in prison. 2 Fast 2 Furious (2003) Hindi English Dual Audio. 3 years 1 week ago #665510 by Sylvester Latest fast and furious movie $250 Million budget was created by Sylvester When the previous installment came out in SA, The two main movie distributors ran out of refreshments across the board. 1 for the quality of the roads. Fast And Furious 8 2017 720p BluRay x265 HEVC PaHe mkv server/apple 783 MB. Movies Fast and the Furious. 7% of its money earned outside the North American market, as well as for the Fast and Furious franchise in general (Furious 7 made 76. Yet, the ridiculously lucrative Furious 7 ended with real closure. S Diplomatic Security Service (DSS) agent. 03 million internationally and $908. Hive-CM8 Fast and Furious 7 (2015) HDCAM New AUDIO x264-CPG Fast and Furious 7 2015 720p HDTS x264 AC3 TiTAN Fast And Furious 7 2015 HDCAM x264 -FWOLF Fast. Wonder Woman. The Fast and the Furious: Tokyo Drift (Tiếng Việt: Nhanh và nguy hiểm: Rê đuôi xe kiểu Tokyo) là bộ phim chiếu rạp năm 2006 được Justin Lin đạo diễn, là phần 3 của loạt phim The Fast and the Furious. ©2020 Universal Pictures We and our partners use cookies on this site to improve our service, perform analytics, personalize advertising, measure advertising performance, and remember website preferences. Fast and Furious:Solo parti originali Streaming Fast and Furious:Solo parti originali Streaming Negli anni che ha passato in fuga dalle autorità, il ricercato Dominic Toretto ha messo in piedi una nuova vita – e un’attività illegale – nella Repubblica Domenicana. The Fast and Furious action films which centre round illegal street racing are Universal's biggest franchise of all time, and is currently the ninth-highest grossing film series of all time. The Fast and the Furious (Fast & Furious o The Fast Saga) es una franquicia de medios estadounidense centrada en una serie de películas de acción que se ocupan en gran medida de carreras callejeras. Fast and Furious Text Mining Joel D. Dom and Letty’s attempt at a new life is shattered by the return of characters from their past. Chapter 7 8. The White House has until October 1 to issue a Vaughn Index of the documents Judicial Watch has requested. This is the British English definition of fast. Lil Wayne" INDEX 01 03:47:67 TRACK 03 AUDIO TITLE "Con Locura" PERFORMER "Sua feat. "Fast and Furious 8" is a go. Rus Download Subtitles. Angel Unchained. Wanda's box office sales were up 12. 1:52 50+ videos Play all Mix - Fast and Furious 8 recording session - Brian Tyler YouTube Fast and Furious by Brian Tyler (soundtrack recording session footage from Fast Five) - Duration: 3:19. 1 x264-EVO Miss. Fast & Furious 8 (known in the US as The Fate of the Furious) was always intended to be the first of a final trilogy of films, and it seems lead actor Vin Diesel has had his wish granted. u have to do the car up first then go to design front and search for specific car design of fast and furious i have mona lisa veilside rx7 replica skyline r34 rep and the evo 8 lokkalike on the game Guest said: 3rd Jan 2017 | REPORT. 34 from 336 reviews 336 reviews TrustIndex: 2. Unlike other Fast films, this one is more of an action comedy, and also introduces Tej into the series. April 26th, 2017. Watch The Fast and the Furious "Final Race" scene behind the scenes! The Fast and The Furious - 8 Bit Cinema - Duration: 3:05. Error: please try again. Continuing the global exploits in the unstoppable franchise built on speed, Vin Diesel, Paul Walker and Dwayne Johnson lead the returning cast of Fast & Furious 7. The film stars Vin Diesel, Dwayne Johnson, Jason Statham, Michelle Rodriguez, Tyrese Gibson. Universal Pictures has shifted “Fast and Furious 9” back six weeks from April 10 to May 22, 2020 — the start of the Memorial Day weekend. XviD-TRL [IDN CREW] In questo 5 capitolo della serie Fast and Furious, finiti a Rio De Janeiro dopo aver liberato. It is about the 2003 movie "2 Fast 2 Furious". The real Fast & Furious: Paul Walker 'was in a STREET RACE when he died in fireball crash', as parents tell of family's heartache. Set in a world related to, yet separate from, the movie, the game features a drift mechanic that makes drifting accessible Inspired by the events of Universal Pictures' upcoming film, "The Fast & The Furious: Tokyo. Fast And Furious All Parts Collection Part 1-8 BluRay Hindi English Fast And Description: The Fast and the Furious (also known as Fast & Furious) is an American franchise based on a series of action films that is largely concerned with illegal street racing and heists, and includes material in various other media that depict characters […]. We searched for the best fun Fast and Furious games and only included in our online game collection Fast and Furious games that are enjoyable and fun to play. 7GB: 26 : 0 : Fast & Furious FRENCH HDLight 10 8 0p 2001: 2. Fast & Furious (4) Russian Subtitles. In early July, the gang snapped a pic on set as they celebrated Rodriguez's birthday. Fandoms: Fast and the Furious Series, Furious 7 (2015), The Fate of the Furious (2017), Hobbs & Shaw (2019) General Audiences Choose Not To Use Archive Warnings, No Archive Warnings Apply. Depuis que Hobbs, fidèle agent de sécurité au service diplomatique des États-Unis, combatif mais droit, et Shaw, un homme sans foi ni loi, ancien membre de l’élite militaire britannique, se sont affrontés en 2015 dans Fast & Furious 7, les deux hommes font tout ce qu’ils peuvent pour se nuire l’un à l’autre. Chapter 9. And as always, Good Luck!. It's the second backwards shift for the title. Episode 04. Filmovi u kinima; On je jednostavno film za određeni trenutak, za dobru zabavu. 1 x264-EVO Miss. #Hollywood #The Fast and the Furious #Vin Diesel #Fast and Furious #2 Fast 2 Furious #fate of the furious #Tokyo Drift #The Fast and the Furious: Tokyo Drift #Fast and Furious 8 #Furious 8 1 Last. flac" WAVE TRACK 01 AUDIO TITLE "We Own It (Fast and Furious)" PERFORMER "2 Chainz and Wiz Khalifa" INDEX 01 00:00:00 TRACK 02 AUDIO TITLE "Ball" PERFORMER "T. Oscars Best Picture Winners Best Picture Winners Golden Globes Emmys San Diego Comic-Con New York Comic-Con Sundance Film Festival Toronto Int'l Film Festival Awards Central Festival Central All Events. The Fate of the Furious opens a new chapter in the franchise, fueled by the same infectious cast chemistry and over-the-top action fans have come to expect. there is NO 6 or 7 second car (4,6,8,10,12 cylinders) that can possibly, even by a layman, be mistaken for a street car. 1 Dual Audio All Parts (2001-2017) Collection The Fast And Furious Octalogy (1,2,3,4,5,6,7,8) Bluray Dual Audio 1080p Full Movie Free. Fast and Furious 9 is an upcoming Action film directed by Justin Lin and written by Daniel Casey "Fast and Furious 9" The Saga 'F9' has evolved over the years from being films focused on the racing of illegal cars to tell stories about international crime and espionage. The former Hollyoaks actress, 30, donned a large black puffer jacket. RLC and Convention. After jumping from a car, a woman is pulled into a large truck by a man and she is shown straddling his lap (they look at each other flirtatiously before she moves to the passenger seat). Fast and Furious Presents Hobbs & Shaw (2019)-Dwayne Johnson-1080p-H264-AC 3 (DolbyDigital-5. Knit using super bulky weight yarn and size 13 needles, this is one knit hat pattern that will be off your needles as quickly as you cast on. Fast and furious tokyo drift watch online hd found at couchpotato. Gary Gray’s Fast and Furious 8 is similar in point and essence with its bombastic opening. The Fast and the Furious. King of the Game. Vin Diesel-Paul Walker reunion rakes in $72. com2#122#Caption Writer=hb. Fast & Furious 8 cost a quarter of a billion, before advertising and promotion. With Vin Diesel, Jason Statham, Dwayne Johnson, Michelle Rodriguez. Sarjan ensimmäinen osa Hurjapäät sai ensi-iltansa vuonna 2001. A spinoff of The Fate of the Furious, focusing on Johnson’s US Diplomatic Security Agent Luke Hobbs forming an unlikely alliance with Statham’s Deckard Shaw. Fast & Furious Presents: Hobbs & Shaw seems to have pleased critics. st/Fast8Movie On the heels of 2015’s Fast & Furious 7, one of the fastest movies to reach $1 billion worldwide in box-office history and the sixth-biggest. The Fast and the Furious | 2001 | PG-13 | - 4. RLC and Convention. com2#122#Caption Writer=hb. 2 Charvelx04: English: Fast. After jumping from a car, a woman is pulled into a large truck by a man and she is shown straddling his lap (they look at each other flirtatiously before she moves to the passenger seat). IMDB SINOPSIS Domenic Toretto is a Los. Find a fast-and-furious on Gumtree, the #1 site for Stuff for Sale classifieds ads in the UK. Film: Fast & Furious 8. The Fate of the Furious er den åttende spillefilmen i serien The Fast and the Furious. 1:52 50+ videos Play all Mix - Fast and Furious 8 recording session - Brian Tyler YouTube Fast and Furious by Brian Tyler (soundtrack recording session footage from Fast Five) - Duration: 3:19. TITLE "Fast and Furious 6" FILE "Various - Fast and Furious 6. 1 x265-AAAUHD; Fast and Furious Presents Hobbs and Shaw 2019 1080p BluRay DD5. The Fast and the Furious is an adrenaline-filled, action-packed car racing game that enables you to feel like a real racer or a "2 Fast 2 Furious" movie star! This fast-paced, dynamic 2 Fast 2 Furious racing game requires you both to avoid incoming cars and objects, but also to change gears at the most suitable times, to gain more speed. Han's Return In Fast & Furious 9 Can Redeem Hobbs & Shaw. Fast and Furious 5 sedang dalam peringkat pembangunan. Kérjük, add meg e-mail címed, ahol fel tudjuk venni veled a kapcsolatot. How to Watch Furious 7 online – All 7 Fast and Furious movies. 03 million internationally and $908. Judicial Watch president Tom Fitton says he has “no doubt” that a 9/23 fed. 0 +4 TRAINER; Fast & Furious: Showdown v1. Court Description: MEMORANDUM OPINION AND ORDER granting in part and denying in part plaintiff's motion to compel 103. Confirm Delete Score. The Fast and the Furious: 22 de junho de 2001 $38 milhões $144. Vin Diesel and Dwayne Johnson are perfect in their roles as old-fashioned, hard-hitting, fast-driving macho guys. Original title: The Fate of the Furious (Fast and Furious 8) UHD. Moritz and distributed by Universal Pictures. Plus, a new mobile app experience with exclusive content. Sarjan ensimmäinen osa Hurjapäät sai ensi-iltansa vuonna 2001. 0 +1 TRAINER; Game Releases: MULTI6: EN/DE/FR/ES/IT/RU (Digital. Since Dom (Vin Diesel) and Brian's (Paul Walker) heist in Rio left them and their crew very rich people, they've scattered across the globe; however, they must still live as fugitives, unable to return home to their families. The eighth installment of the Fast & Furious franchise hits theaters on April 14, 2017. Miss Fisher & the Crypt of Tears (2020)) Miss Fisher and the Crypt of Tears 2020 1080p BluRay DTS-HD MA 5. “Black Panther 2” vẫn được ra mắt vào ngày 6-5-2022 trong khi “Captain Marvel 2” trình làng ngày 8-7-2022. Fast & Furious (no Brasil, Velozes e Furiosos 4) é um filme de ação americano de 2009, dirigido por Justin Lin e escrito ppor Chris Morgan. The RSI is a standard technical measure originated by Welles Wilder, and measures the tendency for market advances or declines to dominate short-term. She digs deep and has been relentless. 4GB: 369 : 12 : Fast & Furious 8 FRENCH DVDRIP 2017: 1. to Tokyo, Rio to London, and Cuba to New York City. Fast & Furious 9 2020 (Update) 1947 Kb/s DOWNLOADEN. The Fast & Furious blockbuster franchise unfolds over nearly 14 hours so far—and that’s before an eighth movie in the $4 billion series, The Fate of the Furious, arrives in theaters on Friday. That's the beginning of the movie, so prepare yourself for one hour and a half of adrenaline, tuning and octanes. 03 million internationally and $908. 4,253 theaters. Yet, the ridiculously lucrative Furious 7 ended with real closure. Fast & Furious: Original Motion Picture Score is the soundtrack to the film of the same name. International Box Office: Furious Fast Start Leads to a Quick Fall with $158. Running Time2 hr 17 min. Fast and Furious Tokyo Drift Most of Sung Kang fans including myself got to know him from this movie, Fast and Furious 3 Tokyo Drift. Universal Pictures has revealed the name of the eighth film in the Fast & Furious franchise: the pic will be titled The Fate of the Furious, and it will bow globally April 14 as previously anno…. The attraction is based on the Fast & Furious film franchise, which features Vin Diesel, Dwayne Johnson, Michelle Rodriguez and Tyrese Gibson. Fast 8 marks the first film of the franchise other than The Fast and the Furious: Tokyo Drift (2006) not to star Paul Walker, who died in a single-vehicle crash on November 30, 2013. Yhteensä elokuvia on ilmestynyt kahdeksan. Posted by Don Malcolm on 11/1/2019, 8:44 am, in reply to "SUBWAY-1957 A rather fast and furious 24 mins" Great stuff, Gord--how many of these episodes do/did you have? I see about half a dozen reviews from you at IMDB, with several more eps covered by other contributors. Download Fast & Furious Presents: Hobbs & Shaw (2019) Download Fast & Furious Presents: Hobbs & Shaw (2019) Sub Indo Full Movie indoxxi, bukan hanya bisa download saja, juragan dapat juga download film indoxxi secara gratis tentunya dengan kualitas HD atau bluray. Ma la vera passione va oltre!!. It can be anything really, reflections on why you think Microsoft is a cool company to why you'll never buy a Nissan. The Fast & Furious cinematic universe is expanding. Gary Gray y escrita por Chris Morgan. Since its IPO in 2016 (for around $1. Download magnet torrent 720p. With Jordana Brewster, Charlize Theron, Vin Diesel, Michelle Rodriguez. 1-SiCaRio Fast and Furious 6 2013 Extended Cut REPACK UHD BluRay REMUX 2160p DTS-HD MA 5. Fast & Furious 5 (Fast Five) (2011) Fast & Furious 6 (Furious 6) (2013) Fast & Furious 7 (Furious 7) (2015) Fast & Furious 8 (The Fate of the Furious) (2017) Fast & Furious 9 (2020) Videogiochi. Hobbs and Shaw Movie - Dwayne Johnson, Jason Statham, Idris Elba - Fas. Liste The Fast and the Furious Reihe 1 - 8 Liste abonnieren Wenn du eine Liste abonnierst bekommst du in deinem Dashboard eine Nachricht, wenn ein User neue Filme hinzufügt. Fast and Furious Text Mining Joel D. Universal's Fate of the Furious easily beats out The Circle and How to Be a Latin Lover for the top box office spot with $18. Watch the new F9 trailer on the Fast & Furious Saga official movie site. Vin Diesel and Dwayne Johnson are perfect in their roles as old-fashioned, hard-hitting, fast-driving macho guys. Fast and Furious. There is no way I can objectively review The Fast and the Furious. Forza Horizon 2 Presents Fast & Furious for Xbox One game reviews & Metacritic score: For the first time , the Forza experience is combining with the Fast & Furious movie franchise to create an original expansion pack adventure filled with high-s. Dwayne Johnson in 'Fast and Furious 8. Walmart Only. Gary gray and it& written by Chris Morgan. Domenic Toretto is a Los Angeles street racer suspected of masterminding a series of big-rig hijackings. 2 Fast 2 Furious (2003) Hindi English Dual Audio. Buy from £7. Universal Pictures has revealed the name of the eighth film in the Fast & Furious franchise: the pic will be titled The Fate of the Furious, and it will bow globally April 14 as previously anno…. Fast And Furious Collection (2001-2019) 720P Hindi English Dual Audio HD FDT Torrent. Charlize Theron is Cipher The ultimate puppet master, a legendary hacker known only by her exploits. The album went platinum in 2002 in both the United States and Canada. TITLE "Fast and Furious 6" FILE "Various - Fast and Furious 6. It was developed and published by Raw Thrills. 6K Fast & Furious 7 2015 (Truefrench) BLURAY ArRoWs. Download millions of torrents with TV series, movies, music, PC/Playstation/Wii/Xbox games and more at Bitsnoop. Rapido y furioso; reto tokyo (the fast and the furious; tokyo drift) es en donde el unico personaje conocido es Han (Sung Kang) el japones quien se. 35%, and Italy 0. Han Lue's return in Fast & Furious 9 could be what the franchise needs to redeem the issues in Hobbs & Shaw. The Fate of the Furious [3] (no Brasil, Velozes e Furiosos 8; em Portugal, Velocidade Furiosa 8), também conhecido como Fast & Furious 8, Fast 8 e Furious 8, e estilizado F8, é um filme de ação estadunidense de 2017, dirigido por F. The adrenaline-fueled thrill ride that began with The Fast and the Furious takes an explosive new turn in 2 Fast 2 Furious! It's the nitro-fueled answer to the question: how fast do you like it? Now an ex-cop on the run, Brian O'Connor (Paul Walker) hooks into outlaw street-racing. Fast and furious(ly) multilingual: Publishing of EU politics in 24 languages with Umbraco 1. In theaters April 2, 2021. Retrieved 01-26-2019. FAST & FURIOUS 8 - Bande-annonce officielle 2 VF Trailer (Vin Diesel, Dwayne Johnson, Jason Statham - The Fate Of The Furious)[Au cinéma le 12 avril 2017] [Full HD,1920x1080]. The Fast And The Furious (2001) 2 Fast 2 Furious (2003) The Fast And The Furious: Tokyo Drift (2006) Fast & Furious (2009) Fast Five (2011) Fast & Furious 6. 28 million, giving it an opening week Blu-ray share of 55%. Moritz and distributed by Universal Pictures. 'Fast & Furious 7', also referred to as 'Furious 7', is the latest instalment of the car thriller franchise, and Paul Walker's final appearance in the movies following his untimely passing in 2013. Fast & Furious 9 - Furios și iute 9. Lawman Luke Hobbs and outcast Deckard Shaw form an unlikely alliance when a cyber-genetically enhanced villain threatens the future of humanity. 4 million during previews last night; however, this wasn't as fast as I was expecting. Er spielt in der Renn- und Tuningszene Japans. Now that Dom and Letty are on their honeymoon and Brian and Mia have retired from the game—and the rest of the crew has been exonerated—the globetrotting team has found a semblance of a. Han's Return In Fast & Furious 9 Can Redeem Hobbs & Shaw. Pinterest. 1 Dual Audio All Parts (2001-2017) Collection The Fast And Furious Octalogy (1,2,3,4,5,6,7,8) Bluray Dual Audio 1080p Full Movie Free. The Fate of the Furious (alternatively known as F8 and Fast & Furious 8) is a 2017 American action film directed by F. Error: please try again. A sequel to 2015's Furious 7, it is the eighth installment in the Fast & Furious franchise and stars Vin Diesel, Dwayne Johnson, Jason Statham, Michelle Rodriguez, Tyrese Gibson, Chris "Ludacris" Bridges, Scott Eastwood, Nathalie Emmanuel. It has withstood a furious onslaught of competition, going up against everything from eBay and Amazon to Gumtree. 1 x265-TERMiNAL The Fast And The Furious 2001 BluRay REMUX 1080p VC-1 DTS-HD MA 5. Paul Walker berkata, “Saya telah bercakap dengan para eksekutif di Universal buat masa ini dan mereka betul-betul serius. Get Movies. 7% of its money internationally). The adrenaline-fueled thrill ride that began with The Fast and the Furious takes an explosive new turn in 2 Fast 2 Furious! It's the nitro-fueled answer to the question: how fast do you like it? Now an ex-cop on the run, Brian O'Connor (Paul Walker) hooks into outlaw street-racing. Fast Cars; Protectiveness; Romance; Protective Dominic; Bottom Brian; Other Additional Tags to Be Added; very slow updates; Abandoned Work - Unfinished and Discontinued; Language: English Stats: Published: 2019-08-14 Completed: 2019-11-29 Words: 5099 Chapters: 8/8 Comments: 14 Kudos: 67 Bookmarks: 12 Hits: 2908. The real Fast & Furious: Paul Walker 'was in a STREET RACE when he died in fireball crash', as parents tell of family's heartache. Thank you so much! (We accept donations year round, so if you haven't donated yet, there's still time to add your support!). Download Movie Action, Crime, Populer, Subscene. Fast & Furious 9 - The Fast Saga (F9: The Fast Saga), noto anche come Fast & Furious 9, è un film del 2021 diretto da Justin Lin. The Fast and the Furious, Fast & Furious) su Američka franšiza koja uključuje niz akcionih filmova koji se bave ilegalnim uličnim trkama i pljačkama kojim se bave glavni likovi tokom filmova. Fast & Furious 9 2020 (Update) 1947 Kb/s DOWNLOADEN. The Fast and the Furious: Tokyo Drift (2006) Tokyo Drift; 04. The tenth is due in 2021. So now i have a set of 8 cars that are not the same as what is displayed. Please check back again at a later date. 1 All Parts (2001-2017) Collection Full Movie Tokyo Drift , The Fast and the Furious HD Download Online. Fast And Furious 9 is a thrilling action film, which is a side project of 2017's The Fate of the Furious. Language Release Owner; English: Fast and Furious Presents: Hobbs and Shaw (WEB-DL) ver. Police are now probing whether the supercar was racing at the. "Fast and Furious 8" is a go. The 26-year-old driver was wanted for break-and- enter offences in Banora Point but police were forced to give up the pursuit when the driver reached 190kmh. The score was composed by Brian Tyler. 925 [6] 2 Fast 2 Furious: 6 de junho de 2003 $76 milhões $127. Rack up 500 points and you'll score a $5 reward for more movies. Watch now from £2. Download video fast and furious 7 sub indo mp4,nonton fast and furious 7 subtitle indonesia hd,download film fast download film rilan, index of dilan 1990 mkv, Incarcat de Accesari 1109 Data 0 Marime 5. Vin Diesel is Dominic Toretto The newly rogue Dominic Toretto is joined by a returning all-star cast as well as a star-studded array of newcomers to this world. I hope you enjoyed it as much as I did. 0 +1 TRAINER. Download the Fast and Furious 2009 2160p USA UHD Blu-ray HEVC DTS-HD MA 7. The gauge does not matter either. Chapter 4 5. Lil Wayne" INDEX 01 03:47:67 TRACK 03 AUDIO TITLE "Con Locura" PERFORMER "Sua feat. " El dijous 23 d'abril de 2015, Vin Diesel va confirmar a la revista "The Hollywood Reporter" que el dia 14 d'abril del 2017 s'estrenaria el vuitè lliurament de la reeixida saga. Los Angeles police officer Brian O'Conner must decide where his loyalty really lies when he becomes enamored with the street racing world he has been sent undercover to destroy. the product is displayed as Hot Wheels Fast and Furious Set of 8 2016 Exclusive 1:64. Find a fast-and-furious on Gumtree, the #1 site for Stuff for Sale classifieds ads in the UK. The Fate of the Furious is living fast, but plummeting just as fast down 64% to $158. NISSAN SKYLINE GT-R (BCNR33) ☆☆ HOT WHEELS 2019 FAST AND FURIOUS ORIGINAL☆☆ | eBay Skip to main content. Greenlight (#86252) 1/43 'O' Scale $36. The Fate of the Furious (aka Fast & Furious 8) is the eighth installment in The Fast and the Furious film franchise. Download "Fast And Furious 4 2009 TS XViD BLaZE" torrent (Video » Anime). For anyone who has seen the series, it shouldn't be a surprise that Han's F&F is so low — he just isn. Elokuvalle on tehty kuusi jatko-osaa: Hurjapäät: Tokio Drift, Fast & Furious, Fast & Furious 5, Fast & Furious 6, Fast & Furious 7 ja Fast & Furious 8. The Fate of the Furious (alternatively known as F8 and Fast & Furious 8) is a 2017 American action film directed by F. Fast And Furious 8 2017 EXTRAS rar server/apple 1. The white building on the right side of the street, which in the movie has a sign reading "UAS Tires & Wheels", actually is just that, located at 12087 Prairie. If playback doesn't begin shortly, try restarting your device. Fast and Furious. Автомобили из фильмов серии Fast and Furious (Форсаж) By SkyliNe_52 Здесь собраны прототипы реальных авто из фильмов Форсаж. Gary Gray and written by Chris Morgan. The latest movie news, movie trailers, new movies from 2020 movies releases and more. The Fast and the Furious: Tokyo drift (hrv. 7% of its money earned outside the North American market, as well as for the Fast and Furious franchise in general (Furious 7 made 76. Best 'Fast and Furious' Franchise Hero. The album, with a total of 25 tracks, was released on CD by Varèse Sarabande with 78 minutes and 11 seconds' worth of music. As guns traced to Fast and Furious began turning up at violent crime scenes in Mexico, ATF agents stationed in Mexico voiced opposition to the program. Liste The Fast and the Furious Reihe 1 - 8 Liste abonnieren Wenn du eine Liste abonnierst bekommst du in deinem Dashboard eine Nachricht, wenn ein User neue Filme hinzufügt. 925 [6] 2 Fast 2 Furious: 6 de junho de 2003 $76 milhões $127. (Furious Seven Spoiler Warning) Fast and Furious 8 and 9 serves as a two-parter most likely filmed back to back. This quiz is about one of the very best movies in the world. Filmen er blevet efterfulgt af 2 Fast 2 Furious (2003), Fast and Furious: Tokyo Drift" (2006), "Fast and Furious 4 (2009), Fast Five (2011), Fast and Furious 6 (2013), Fast and Furious 7 (2015), Efter Paul Walkers tragiske død udkom, "Fate of the Furious" i 2017. It's available to watch on TV, online, tablets, phone. Actor Vin Diesel has confirmed that the production team is mulling plans to develop prequels and spin-offs to debut after the current new trilogy. Schaalmodel: Plymouth GTX. A Complete Guide to Virtual Line at Fast & Furious – Supercharged. delete my score. The Fate of the Furious [3] (no Brasil, Velozes e Furiosos 8; em Portugal, Velocidade Furiosa 8), também conhecido como Fast & Furious 8, Fast 8 e Furious 8, e estilizado F8, é um filme de ação estadunidense de 2017, dirigido por F. 7GB: 26 : 0 : Fast & Furious FRENCH HDLight 10 8 0p 2001: 2. Watch the new F9 trailer on the Fast & Furious Saga official movie site. Los Angeles police officer Brian O'Conner must decide where his loyalty really lies when he becomes enamored with the street racing world he has been sent undercover to destroy. The Fast And Furious Octology BluRay 1080p [ Hindi + English ] DTS 5. Chapter 7 8. The Fast & the Furious är en serie amerikanska actionfilmer som bland annat fokuserar på illegal street racing. The adrenaline-fueled thrill ride that began with The Fast and the Furious takes an explosive new turn in 2 Fast 2 Furious! It's the nitro-fueled answer to the question: how fast do you like it? Now an ex-cop on the run, Brian O'Connor (Paul Walker) hooks into outlaw street-racing. A sequel to 2015's Furious 7, it is the eighth installment in the Fast & Furious franchise and stars Vin Diesel, Dwayne Johnson, Jason Statham, Michelle Rodriguez, Tyrese Gibson, Chris "Ludacris" Bridges, Scott Eastwood, Nathalie Emmanuel. When a mysterious woman seduces Dominic Toretto into the world of terrorism and a betrayal of those closest to him, the crew face trials that will test them as never before. Fast & Furious 6 (2013) Rotten Tomatoes® 68% Furious 7 (2015) Rotten Tomatoes® 81% The Fate of the Furious (2017) Fast & Furious 10 (2021) Show My Results. 1 x264-SPARKS; Fast and Furious Presents Hobbs and Shaw 2019 1080p WEB-DL DD5. Watch The Fast and the Furious "Final Race" scene behind the scenes! The Fast and The Furious - 8 Bit Cinema - Duration: 3:05. All the intertitles were in Italian and there was no music so I added English translations under each intertitle - all 200 of them - and culled together an appropriately jaunty music accompaniment. (Furious Seven Spoiler Warning) Fast and Furious 8 and 9 serves as a two-parter most likely filmed back to back. Thank you so much! (We accept donations year round, so if you haven't donated yet, there's still time to add your support!). March 12 was the last photo the public has seen of Hanx. Have fun and good luck!. Fast 8 marks the first film of the franchise other than The Fast and the Furious: Tokyo Drift (2006) not to star Paul Walker, who died in a single-vehicle crash on November 30, 2013. 1: The Fast and the Furious: 22 Juni 2001: 2: 2 Fast 2 Furious: 6 Juni 2003: 3: The Fast and the Furious: Tokyo Drift: 16 Juni 2006: 4: Fast & Furious: 3 April 2009: 5: Fast Five: 29 April 2011: 6: Fast & Furious 6: 24 Mei 2013: 7: Furious 7: 3 April 2015: 8: The Fate of the Furious: 14 April 2017. 292 [8] [9] Fast & Furious: 3 de abril de 2009. bpg converter to the 'Tools/Texture converters' module and the Fast and Furious 8. zdo loader module to the 3D Object Converter v7. With Vin Diesel, Paul Walker, Michelle Rodriguez, Jordana Brewster. The 2003 Saleen S281-E Mustang is a major car driven by one of Carter Verone's potential employees in 2 Fast 2 Furious. Fast & Furious 8 cost a quarter of a billion, before advertising and promotion. Plus, a new mobile app experience with exclusive content. You need to disable your adblocking software to continue watching movie on this site. aWe had to terminate the pursuit. The plot involves. Er ist der dritte Teil der The-Fast-and-the-Furious-Reihe, spielt aber zeitlich nicht direkt nach den Ereignissen des zweiten Teils, 2 Fast 2 Furious, sondern erst nach Fast & Furious 6 und vor Fast & Furious 7. That's the beginning of the movie, so prepare yourself for one hour and a half of adrenaline, tuning and octanes. La nici 24 de ore de la tragedie, fiul viceprimarului din Ziduri, care duminică dimineaţă a provocat un accident soldat cu moartea surorii sale, Loredana, de 19 ani, le-a transmis cunoscuţilor săi de pe o reţea de socializare că este bine. AJ Michalka 14. 2 billion during its theatrical run. The attraction is based on the Fast & Furious film franchise, which features Vin Diesel, Dwayne Johnson, Michelle Rodriguez and Tyrese Gibson. April 2021 is the time for F9, the ninth chapter in the saga that has endured for almost two decades and has earned more than $5 billion around the world. Episode 06. Nah, kali ini "Fast & Furious 9" sudah memasuki proses produksi dan diperkirakan akan tayang pertengahan 2020 mendatang. Join the Fast & Furious crew as you race white-knuckle collision courses and build your own dream garage of iconic cars. Take a look at photos of 'Fast & Furious 9. The Ultimate Collection. 5 billion alone. The villain this one (Owen Shaw) was an ex-military so it is quite a bit more violent than "Fast 5" but the only part that was truly bad was that 8 innocent people are run over by a tank for the villain's entertainment and a man is thrown into a plane turbine other that that just some fist fights and gun fights. Ira 2018 malayalam full movie online watch ira dvdrip movie, cmovies, 9xmovies, openload, filmlinks4u,123movies, movierulz. Gibson posted on Instagram Wednesday, telling "loyal f…. Gary Gray ('Straight Outta Compton', 'Law Abiding. The Only Source Of YTS & YIFY TORRENT – Make Sure To download Fast & Furious Presents: Hobbs & Shaw (2019) Torrent Movie – Film Quality in HD / browse and download YIFY movies in excellent 4k 2160p, HD 1440p, HD 1080p, HD 720p, SD 480p, SD 360p, SD 240p quality Torrents – Fast & Furious Presents: Hobbs & Shaw (2019) Released On 2019 In. Filmul a fost regizat de James Wan, după un scenariu de Chris Morgan. "They come fast and furious. Fast & Furious 6 var under udvikling i februar 2010 som den første film i serien, der bevæger sig væk fra det "underground-bil racing tema" som seriens tidligere film gjorde. Follow/Fav 129 - Updated: 8/1/2013 - Published few seconds before bypassing the cloth and dipping his index and middle fingers. 's OPM SF-61 APPOINTMENT AFFIDAVITS. Ashley Tisdale 8. Lauren Coates Feb 5, 2020. 8% of the country bought a new car in 2017), and it scored an impressive 5. 1-SiCaRio Fast and Furious 6 2013 Extended Cut REPACK UHD BluRay REMUX 2160p DTS-HD MA 5. Furious 7 confirms that Fast and Furious is set in 2009, as the date on Letty's fake tombstone says 2009, and Fast Five and Six take place immediately (mere days, months at the most) after it, meaning movies 4-6 for the most part are set in 2009-10, with The Fast and the Furious being set five years prior in 2004. Error: please try again. Fast And Furious 7 Hindi Dubbed Movie 2015 HD Watch Online Free. The Fast and Furious Lacy Scarf is a simple lacy scarf pattern that will take you no time at all. Chapter 5 6. United States. Download. Fast & Furious Presents: Hobbs & Shaw 2019 Movie BluRay Dual Audio Hindi Eng 400mb 480p 1. 's OPM SF-61 APPOINTMENT AFFIDAVITS. The Fast and the Furious is one of the most successful action films to date. A Complete Guide to Virtual Line at Fast & Furious – Supercharged. The Lockheed C-130 Hercules -- the longest continuously produced military plane in history -- performs a jaw-dropping stunt in "Furious 7. It originates from the 2017 action movie The Fate of the Furious as Dominic. Popular 90's action heroine Razor is about to get the cinematic treatment from a new movie by producer Jeff Most ("The Crow", "The Specialist") and writer/director Rob Cohen ("The Fast and the. 1 Dual Audio All Parts (2001-2017) Collection The Fast And Furious Octalogy (1,2,3,4,5,6,7,8) Bluray Dual Audio 1080p Full Movie Free. The first movie in 2001 did $363 million in global box office. 1 MB Browserul tau nu suporta HTML5 Torrentz will always love you. Gary Gray, sorti en 2017. KB/DB swings 10-1 reps burpees For time. Download Fast And Furious Presents Hobbs And Shaw 2019 Movies HDTS Clean torrent or any other torrent from the Video Movies. Showtimes Fast & Furious 8. Checking the online Italian Cinemateca the other day, I found a beautiful 35mm print of the Reginald Denny romantic comedy, FAST AND FURIOUS (1927). Download magnet torrent 720p. Mandatory Credit: Photo by Moviestore/Shutterstock (2399184c) FAST AND FURIOUS 6 (2013) Michelle Rodriguez, Vin Diesel FAST AND FURIOUS 6 - Feb 2013. Gary Gray and written by Chris Morgan. 1 x264-SPARKS. Turbo-Charged Prelude is a 2003 short film, directed by Philip Atwell, featuring Paul Walker, reprising his role as Brian O’Conner, in a short series of sequences which bridge The Fast and The Furious with its first sequel, 2 Fast 2 Furious. Fast & Furious: Supercharged is an attraction at Universal Studios Hollywood, Universal Studios Florida and upcoming to Universal Studios Beijing. Chapter 4 5. Film yang disutradarai oleh Rob Cohen ini dibintangi oleh Paul Walker , Vin Diesel , Michelle Rodriguez , dan Jordana Brewster. Fast & Furious 9 - Furios și iute 9. The Fast and the Furious popularized underground racing, drifting, and Paul Walker's hair. The Fate of the Furious) (tunnetaan myös nimellä Fast 8 tai Furious 8) on vuonna 2017 ensi-iltansa saanut toimintaelokuva, jonka ohjaaja on F. السرعة و الغضب 9 بالإنجليزية Fast & Furious 9 هو فيلم حركة أمريكي قادم من إخراج جوستين لين و تأليف كريس مورغان ودانييل كيسي. Rus Download Subtitles. 1999 Nissan Skyline GT-R R34. So now i have a set of 8 cars that are not the same as what is displayed. The 1971 Plymouth GTX Fast& Furious Edition is a pre-tuned 1971 Plymouth GTX that appears in the The Fate of the Furious Car Pack for Forza Motorsport 7. "The Fast and the Furious" also takes cues from cinema's great car movies: the final chase scene lifts heavily from 1968's "Bullitt," the Steve McQueen-lead classic. Sarjan ensimmäinen osa Hurjapäät sai ensi-iltansa vuonna 2001. A menţionat totodată că îşi face griji pentru sănătatea părinţilor săi şi este deprimat din cauza morţii surorii lui. Fast & Furious 8 (2017) Furios şi Iute 8. Fast and Furious:Solo parti originali Streaming Fast and Furious:Solo parti originali Streaming Negli anni che ha passato in fuga dalle autorità, il ricercato Dominic Toretto ha messo in piedi una nuova vita – e un’attività illegale – nella Repubblica Domenicana. Played 2,223 times. Watch Fast & Furious 6 starring Vin Diesel in this Drama on DIRECTV. XviD-TRL [IDN CREW] In questo 5 capitolo della serie Fast and Furious, finiti a Rio De Janeiro dopo aver liberato. aWe had to terminate the pursuit. 876 with duration of 8. KickassTorrents (KAT), founded in 2008, provides torrent files and magnet links to peer to peer file sharing using the BitTorrent protocol. the product is displayed as Hot Wheels Fast and Furious Set of 8 2016 Exclusive 1:64. Fast & Furious (originally The Fast and the Furious) is a media franchise centered on a series of action films that are largely concerned with illegal street racing, heists and spies. Brzi i žestoki: Tokio drift, srp. st/Fast8Movie On the heels of 2015’s Fast & Furious 7, one of the fastest movies to reach $1 billion worldwide in box-office history and the sixth-biggest. Though he was not the main character in this movie, he managed to steel all the girls' hearts!. It was released on April 14, 2017, by the Artist Publishing Group, Atlantic Records and Universal Studios , in conjunction of the film's US theatrical release. Lil Wayne" INDEX 01 03:47:67 TRACK 03 AUDIO TITLE "Con Locura" PERFORMER "Sua feat. The Fast and the Furious: Tokyo Drift (2006) PG-13 | 104 min | Action, Crime, Thriller. You need to disable your adblocking software to continue watching movie on this site. Online flash Fast and Furious games copyright to their respective owners. and no 6 or 7 second drag car is going to be suitable for a prolonged road race down the interstate. , Giappone, Francia, Canada Anno: 2017 Genere: Azione, Thriller Durata: 136' Regia: F. 292 [8] [9] Fast & Furious: 3 de abril de 2009. Gary Gray og manusforfattet av Chris Morgan. The 2003 Saleen S281-E Mustang is a major car driven by one of Carter Verone's potential employees in 2 Fast 2 Furious. Omschrijving: modeltank tank Ripsaw – Fast and Furious 8 – Jada Toys 1:24 De Ripsaw Tank is gemaakt van metaal en kunststof door de fabrikant Jada Toys. 's OPM SF-61 APPOINTMENT AFFIDAVITS. 8% of the country bought a new car in 2017), and it scored an impressive 5. Get Movies. Hurjapäät (engl. Home page (access key 1) Latest Catalogues (access key 2) A to Z Index (access key 3) Search (access key 4) FAQ (access key 5) Help (access key 6) Complaints procedure (access key 7) Terms & Conditions (access key 8) Feedback form (access key 9) Access key details (access key 0). and it's not going to look anything like a street car, foreign or domestic. The easy explanation, of course, is that he didn’t want to crowd her moment. View All Videos (2) Vin Diesel stars as Dominic Toretto in the ninth edition of the hugely successful Fast and Furious franchise from Universal Studios. Fast and Furious 7 : 1 516 045 911 $ 353 007 020 $ 4 637 718 entrées: 250 000 000 $ Fast and Furious 8 : 1 236 005 118 $ 226 008 385 $ 3 838 447 entrées 250 000 000 $ Fast and Furious: Hobbs and Shaw : 758 910 100 $ 173 810 100 $ 2 433 635 entrées 200 000 000 $ Totaux 5 891 045 797 $ 1 690 366 916 $. The Fast and Furious Lacy Scarf calls for any size needles and however much yarn you have on hand. Hearts beat fast in the thrilling new “Macbeth” that has transformed the Park Avenue Armory into a war zone, and every breath starts to feel like a gasp. Fast And Furious Collection (2001-2019) 720P Hindi English Dual Audio HD FDT Torrent. The Fast and the Furious Super Bikes, The coin-operated Videogame by Raw Thrills (circa 2006), and it's history and background, photos, repair help, manuals, for sale and wanted lists, and census survey is brought to you by The International Arcade Museum at the Museum fo the Game. 5 billion so far this year and is expected to soon challenge the U. Fast & Furious 6: The Game latest version: Speed through the streets of London. Home (current) Contact us; #StayHome Back to subtitle list. Fast Five (2011) Furios și iute în viteza a 5-a; 06. com In Theaters April 14, 2017 On the heels of 2015's Furious 7, one of the fastest movies to reach. Aly Michalka 13. The Fate of the Furious or Fast 8 will be released in theaters on April 14th, 2017. Furious 7 is the fourth chart-topping soundtrack in the past 12 months, following the TV soundtrack to Empire (No. Unfortunately the program is not yet known for this day. 2 Fast 2 Furious on vuonna 2003 ensi-iltansa saanut elokuva, joka on jatko-osa elokuvalle Hurjapäät. Coughlin @johnrcoughlin April 6, 2015: 11:39 AM ET. Plot FURIOUS AND FAST 8 Dominic Toretto is again recruited by Mr. Introduced in the 2009 film Fast & Furious, she helps Dominic Toretto's team while forming a romantic relationship with team member Han Lue. 1 x265-TERMiNAL The Fast And The Furious 2001 BluRay REMUX 1080p VC-1 DTS-HD MA 5. Very disappointing. The 2003 Saleen S281-E Mustang is a major car driven by one of Carter Verone's potential employees in 2 Fast 2 Furious. Der er stadig planer om at lave 2 efterfølgere mere. The Fast and the Furious: 22 de junho de 2001 $38 milhões $144. The film stars Vin Diesel, Dwayne Johnson, Jason Statham, Michelle Rodriguez, Tyrese Gibson. 2 Fast 2 Furious és una pel·lícula estatunidenca de l'any 2003. The tenth is due in 2021. Are you sure you want to delete your score and checked items on this list? This cannot be undone. Gary Gray and written by Chris Morgan. Fast & Furious 6 (2013) Rotten Tomatoes® 68% Furious 7 (2015) Rotten Tomatoes® 81% The Fate of the Furious (2017) Fast & Furious 10 (2021) Show My Results. View All Videos (2) Vin Diesel stars as Dominic Toretto in the ninth edition of the hugely successful Fast and Furious franchise from Universal Studios. The Fate of the Furious opens a new chapter in the franchise, fueled by the same infectious cast chemistry and over-the-top action fans have come to expect. S Diplomatic Security Service (DSS) agent. The film took first place in five markets, including the U. ' Photo courtesy of Columbia Pictures The entirety of F.